Lady Gaga – Born This Way (2011) PCM Master ProRes 1080p

Genre: Pop
Duration: 00:07:13
Year: 2011

Quality: Master
Video Resolution / Scan: 1080p
Container: MOV
Video codec: ProRes 0
Audio Codec: PCM
Video: APCH, 1920 * 1080p, 151 Mbps, 23.976 fps
Audio: PCM, 2 304 Kbps, 48.0 KHz, 2 channels
Size: 7.72 Gb

“Born This Way” is a song by American singer Lady Gaga, and the lead single from her second studio album of the same name. Written by Gaga and Jeppe Laursen, who produced it along with Fernando Garibay and DJ White Shadow, the track was developed while Gaga was on the road with The Monster Ball Tour. Inspired by 1990s music which empowered women and the gay community, Gaga explained that “Born This Way” was her freedom song. She sang part of the chorus at the 2010 MTV Video Music Awards in 2010 and announced the song as the lead single from the album, released on February 11, 2011.

“Born This Way” is backed by rumbling synth sounds, a humming bass and additional chorus percussion, with sole organ toward the end. The lyrics discuss the self-empowerment of minorities including the LGBT community as well as racial minorities, referring to “cholas” and “orients”, which drew criticism from Latino and Asian communities. Critics positively reviewed the song, calling it a “club-ready anthem”, though it faced criticism for having similarities with Madonna’s 1989 single “Express Yourself”. The song reached number one in over 25 countries and was her third single to top the US Billboard Hot 100 chart and the 1,000th song in that chart’s history (since 1958) to reach number one. “Born This Way” has sold 8.2 million copies worldwide, becoming one of the best-selling singles of all time.

Nick Knight directed the accompanying music video, which was inspired by surrealist painters like Salvador Dalí and Francis Bacon. Gaga is depicted as giving birth to a new race during a prologue. After a series of dance sequences, the video concludes with the view of a city populated by this race. Critics noted the video’s references to the work of Madonna, Michael Jackson, Björk, and the late fashion designer Alexander McQueen, as well as to Greek mythology and surrealism.

Gaga performed the song at the 53rd Grammy Awards after coming out of an incubating vessel. It was also performed during the last leg of The Monster Ball Tour and on television shows such as Saturday Night Live, Dick Clark’s New Year’s Rockin’ Eve and Good Morning America. The song was treated with different remixes, including a “Country Road” version recorded by Gaga herself and another by Indian production duo Salim-Sulaiman. Alice Cooper, Madonna, Katy Perry, Maria Aragon, and the cast of the TV series Glee have covered the song.

pic pic pic pic pic pic pic pic pic pic

General
Complete name               : D:\Lady Gaga - Born This Way (PCM-ProRes-1080p-Abdi).mov
Format                      : MPEG-4
Format profile              : QuickTime
Codec ID                    : qt   2005.03 (qt  )
File size                   : 7.72 GiB
Duration                    : 7 min 13 s
Overall bit rate mode       : Variable
Overall bit rate            : 153 Mb/s
Encoded date                : UTC 2011-02-27 05:14:46
Tagged date                 : UTC 2011-02-27 05:17:33
Writing library             : Apple QuickTime
Media/UUID                  : 30833285-57EE-41FE-966D-9FD83BF0289B

Video
ID                          : 1
Format                      : ProRes
Format version              : Version 0
Format profile              : 422 HQ
Codec ID                    : apch
Duration                    : 7 min 13 s
Bit rate mode               : Variable
Bit rate                    : 151 Mb/s
Width                       : 1 920 pixels
Clean aperture width        : 1 888 pixels
Height                      : 1 080 pixels
Clean aperture height       : 1 062 pixels
Display aspect ratio        : 16:9
Clean aperture display aspe : 16:9
Frame rate mode             : Constant
Frame rate                  : 23.976 (23976/1000) FPS
Color space                 : YUV
Chroma subsampling          : 4:2:2
Scan type                   : Progressive
Bits/(Pixel*Frame)          : 3.027
Stream size                 : 7.60 GiB (98%)
Writing library             : Apple
Language                    : English
Encoded date                : UTC 2011-02-27 05:14:46
Tagged date                 : UTC 2011-02-27 05:17:33
Color primaries             : BT.709
Transfer characteristics    : BT.709
Matrix coefficients         : BT.709

Audio
ID                          : 2
Format                      : PCM
Format settings, Endianness : Little
Format settings, Sign       : Signed
Codec ID                    : in24
Duration                    : 7 min 13 s
Bit rate mode               : Constant
Bit rate                    : 2 304 kb/s
Channel(s)                  : 2 channels
Channel positions           : Front: L R
Sampling rate               : 48.0 kHz
Bit depth                   : 24 bits
Stream size                 : 119 MiB (2%)
Language                    : English
Encoded date                : UTC 2011-02-27 05:14:46
Tagged date                 : UTC 2011-02-27 05:17:33

Other
ID                          : 3
Type                        : Time code
Format                      : QuickTime TC
Duration                    : 7 min 13 s
Time code of first frame    : 00:59:57:07
Time code, striped          : Yes
Language                    : English
Encoded date                : UTC 2011-02-27 05:17:33
Tagged date                 : UTC 2011-02-27 05:17:33

Download:

http://subyshare.com/51phcr8ba99q/LadyGagaB0rnThisWayPCMPr0Res1080pAbdi.part1.rar.html
http://subyshare.com/tp0yayfw3oo8/LadyGagaB0rnThisWayPCMPr0Res1080pAbdi.part2.rar.html
http://subyshare.com/jbjf4cek4z0a/LadyGagaB0rnThisWayPCMPr0Res1080pAbdi.part3.rar.html
http://subyshare.com/kii48ejv4hie/LadyGagaB0rnThisWayPCMPr0Res1080pAbdi.part4.rar.html
http://subyshare.com/6yj5hjyydqb9/LadyGagaB0rnThisWayPCMPr0Res1080pAbdi.part5.rar.html
http://subyshare.com/6oqd9rbvr116/LadyGagaB0rnThisWayPCMPr0Res1080pAbdi.part6.rar.html